用户
 找回密码
 立即注册
搜索

[16Bit] 王闻 - 男人四十 24K金限量版 2021 [WAV/16-44.1]

[复制链接]
发表于 2021-6-8 02:46:07
本区为您推荐超多华语SACD资源,以及Hi-res资源,欢迎大家一起努力为论坛添砖加瓦!


封面:
cover.jpg

简介:
无比传真 磁性嗓音 王闻 男人四十 粤语发烧专辑 24K金碟CD限量版

du一无二的磁性嗓音
粒粒靓声散发男人四十的醇厚与淡然
当今HIFI界屈指可数的高水准制作
金碟奖*佳制作人何忠携声扬制作团队全新力作

曲目:
01.雨丝情愁
02.再见二丁目
03.让一切随风
04.星光背后
05.天长地久
06.有谁共鸣
07.默默向上游
08.旧居中的钢琴
09.酒红色的心
10.共同渡过
11.痴情意外

使用道具 举报 回复
Exact Audio Copy V1.3 from 2. September 2016

EAC 抓取日志文件从6. 六月 2021, 2:09

王闻 / 男人四十 24K金限量版

使用驱动器  :YAMAHA  CRW-F1E   Adapter: 1  ID: 0

读取模式      : 可靠Secure
使用精确流     : 是
清空音频缓存    : 是
使用 C2 指示器 : 否

读取偏移校正:               : 733
读取 Lead-In 和 Lead-Out : 是
用静音填充抓取中丢失偏移的采样       : 是
去除首尾静音块               : 否
在CRC 计算中使用了空样本       : 是
已用接口                  : Win NT 及 2000 本地 Win32 接口

所用输出模式: : 内部 WAV 函数
样本格式    : 44.100 Hz; 16 Bit; 立体声


已抓取 CD 的 TOC

     音轨 |    起始    |    长度    |  起始扇区  |  结束扇区  
    --------------------------------------------
      1 |  0:00.00 |  4:27.00 |      0 |  20024
      2 |  4:27.00 |  4:37.22 |  20025 |  40821
      3 |  9:04.22 |  4:30.11 |  40822 |  61082
      4 | 13:34.33 |  5:08.05 |  61083 |  84187
      5 | 18:42.38 |  3:36.71 |  84188 | 100458
      6 | 22:19.34 |  4:12.33 | 100459 | 119391
      7 | 26:31.67 |  3:58.73 | 119392 | 137314
      8 | 30:30.65 |  5:51.31 | 137315 | 163670
      9 | 36:22.21 |  4:28.65 | 163671 | 183835
     10 | 40:51.11 |  4:48.56 | 183836 | 205491
     11 | 45:39.67 |  4:19.66 | 205492 | 224982
     12 | 49:59.58 |  3:53.28 | 224983 | 242485


范围状态及错误

已选择范围

     文件名 C:\Users\Administrator\Desktop\王闻 - 男人四十 24K金限量版.wav

     峰值电平 98.8 %
     抓取速度 4.9 X
     范围质量 100.0 %
     复制 CRC 108F6DAD
     复制成功

没有错误发生
使用道具 举报 回复 支持 反对
感谢您分享啊!
使用道具 举报 回复 支持 反对
发表于 2021-6-8 07:47:59
谢谢分享!
使用道具 举报 回复
发表于 2021-6-8 07:54:28
谢谢您的分享!!!
使用道具 举报 回复 支持 反对
发表于 2021-6-8 08:05:06
谢谢分享。
使用道具 举报 回复
发表于 2021-6-8 10:48:32

谢谢您的分享!!!
使用道具 举报 回复 支持 反对
发表于 2021-6-8 10:58:06
谢谢您的分享!!!
使用道具 举报 回复 支持 反对
发表于 2021-6-8 17:07:24

谢谢您的分享!!!
使用道具 举报 回复 支持 反对
发表于 2021-6-8 20:32:51

谢谢分享。
使用道具 举报 回复
发表于 2021-6-8 22:16:02
感谢您的精品分享!
使用道具 举报 回复 支持 反对
发表于 7 天前
感谢楼主分享
使用道具 举报 回复 支持 反对
发表于 7 天前
感谢楼主分享!
使用道具 举报 回复 支持 反对
歌单很有意思,感谢
使用道具 举报 回复 支持 反对
发表于 7 天前
谢谢分享?
使用道具 举报 回复
谢谢发布,非常感谢
使用道具 举报 回复 支持 反对
谢谢您的分享!!!
使用道具 举报 回复 支持 反对
谢谢您的分享!!!
使用道具 举报 回复 支持 反对
感谢楼主分享!!
使用道具 举报 回复 支持 反对
感谢楼主分享
使用道具 举报 回复 支持 反对
您需要登录后才可以回帖 登录 | 立即注册

本版积分规则