用户
 找回密码
 立即注册
搜索

发帖

[16Bit] 姚璎格 - 品 24K金头版限量 2021 [WAV/16-44.1]

  [复制链接]
发表于 2021-4-4 02:14:16
本区为您推荐超多华语SACD资源,以及Hi-res资源,欢迎大家一起努力为论坛添砖加瓦!


封面: cover.jpg


简介:
专辑名称:品(头版限量编号24K金碟)
专辑艺人:姚璎格
出品人:毛虎军 韩小军
出品公司:广州市风林文化传播有限公司
出版公司:广东音像出版社有限公司
条形码:9787798426748
发行时间:2021年3月26号

专辑介绍:

《听·姚璎格》让我们听到了她温润如玉 通透醇净的声音
《读·姚璎格》让我们读到了她诚挚深情 波澜不惊的心境
“听、读”之后 姚璎格开始给每张专辑注入传承经典的浓浓情怀
在《恋·上海》和《老歌》中 我们感受到她对故乡的深深眷恋
在《粤》和《风云笑看》中 我们体味到她对粤语老歌的重重敬意
在《红》和《红歌》中 我们对她为家国情怀而挑战自己赞叹不已
在《梦·草原》中 我们听到了梦想能够挖掘出的无限潜能……
经过不断挑战和突破 她的歌艺不断提升 日臻成熟 唱功更是可圈可点

现在 让我们来《品》细品
品 她如佳酿般的醇美声音
品 她情感丰富的内心世界
品 她抚慰心灵的温暖力量
品 她魅力独具的灵魂香气
品 她带给我们的,属于她的独特味道

曲目:
01.父亲写的散文诗Prose poems written by my father  4‘28”
词:董玉方 曲:许飞  编曲:黄振翼wing
02. 又一年year after year       3‘48”
词曲:尹子  编曲:路野Lu Ye
03. 缺口  Gap   4‘48”
词:鲍比达 曲:栖林寺二  编曲:黄楚权 Chuckie
04.梨花又开放Pear blossom opens again  3‘52”
词:丁小齐 曲:因幡晃  编曲:路野Lu Ye
05.痴痴的等waiting for you sillily   4‘00”
词:陶秦 曲:王福龄 编曲:黄楚权 Chuckie
06.真的假的True and false    4‘33”
词曲:大师兄  编曲:路野Lu Ye
07.尘缘Relationship with the world   4‘26”
词:娃娃(陈玉贞) 曲:徐日勤  编曲:周鹏霄 Zhou Pengxiao
08.月半弯Half Moon Bay  3‘56”
词 曲:郝雷  编曲:黄楚权 Chuckie
09.亲爱的小孩Dear Child  4‘19”
词:杨立德  曲:陈复明  编曲:周鹏霄 Zhou Pengxiao  
10.是否Whether   4‘17”
词曲:罗大佑  编曲:黄振翼wing
11.橄榄树Olive Tree   3‘44”
词:三毛 曲:李泰祥 编曲: 张小等Zhang Xiao Deng
12.晚安曲Goodnight Song   4‘05”
词曲:刘家昌  编曲:周鹏霄 Zhou Pengxiao

使用道具 举报 回复
Exact Audio Copy V1.3 from 2. September 2016

EAC 抓取日志文件从4. 四月 2021, 1:00

姚璎格 / 品 24K金头版限量

使用驱动器  :YAMAHA  CRW-F1E   Adapter: 1  ID: 0

读取模式      : 可靠Secure
使用精确流     : 是
清空音频缓存    : 是
使用 C2 指示器 : 否

读取偏移校正:               : 733
读取 Lead-In 和 Lead-Out : 是
用静音填充抓取中丢失偏移的采样       : 是
去除首尾静音块               : 否
在CRC 计算中使用了空样本       : 是
已用接口                  : Win NT 及 2000 本地 Win32 接口

所用输出模式: : 内部 WAV 函数
样本格式    : 44.100 Hz; 16 Bit; 立体声


已抓取 CD 的 TOC

     音轨 |    起始    |    长度    |  起始扇区  |  结束扇区  
    --------------------------------------------
      1 |  0:00.00 |  4:30.14 |      0 |  20263
      2 |  4:30.14 |  3:50.64 |  20264 |  37577
      3 |  8:21.03 |  4:50.39 |  37578 |  59366
      4 | 13:11.42 |  3:54.72 |  59367 |  76988
      5 | 17:06.39 |  4:02.64 |  76989 |  95202
      6 | 21:09.28 |  4:35.42 |  95203 | 115869
      7 | 25:44.70 |  4:28.52 | 115870 | 136021
      8 | 30:13.47 |  3:58.26 | 136022 | 153897
      9 | 34:11.73 |  4:21.43 | 153898 | 173515
     10 | 38:33.41 |  4:19.48 | 173516 | 192988
     11 | 42:53.14 |  3:46.31 | 192989 | 209969
     12 | 46:39.45 |  4:05.31 | 209970 | 228375


范围状态及错误

已选择范围

     文件名 C:\Users\Administrator\Desktop\姚璎格 - 品 24K金头版限量.wav

     峰值电平 100.0 %
     抓取速度 4.9 X
     范围质量 100.0 %
     复制 CRC B370D321
     复制成功

没有错误发生
使用道具 举报 回复 支持 反对
发表于 2021-4-4 02:39:33
楼主加油,看好你哦。
使用道具 举报 回复 支持 反对
发表于 2021-4-4 04:29:09

楼主加油,看好你哦。
使用道具 举报 回复 支持 反对
发表于 2021-4-4 04:48:09
谢谢分享,好歌翻唱
使用道具 举报 回复 支持 反对
发表于 2021-4-4 05:31:34
感謝樓主分享!
使用道具 举报 回复 支持 反对
发表于 2021-4-4 06:10:14
谢谢分享。
使用道具 举报 回复
发表于 2021-4-4 06:33:49
感謝樓主分享!
使用道具 举报 回复 支持 反对
发表于 2021-4-4 06:43:26
Thanks for sharing
使用道具 举报 回复 支持 反对
发表于 2021-4-4 07:04:33
谢谢你的分享
使用道具 举报 回复 支持 反对
发表于 2021-4-4 07:31:19
感谢楼主分享!
使用道具 举报 回复 支持 反对
发表于 2021-4-4 07:40:42
感谢楼主分享!
使用道具 举报 回复 支持 反对
发表于 2021-4-4 08:07:28
非常好的资源,感谢分享!
使用道具 举报 回复 支持 反对
发表于 2021-4-4 08:20:41

感謝樓主分享!
使用道具 举报 回复 支持 反对
发表于 2021-4-4 08:29:40
谢谢分享!!!
使用道具 举报 回复
发表于 2021-4-4 08:47:50
感謝樓主分享姚璎格
使用道具 举报 回复 支持 反对
发表于 2021-4-4 08:57:37
感謝樓主分享!
使用道具 举报 回复 支持 反对
发表于 2021-4-4 09:00:11
感谢分享!
使用道具 举报 回复
发表于 2021-4-4 09:20:21
多谢分享姚璎格
使用道具 举报 回复 支持 反对
发表于 2021-4-4 09:26:40
感谢分享!
使用道具 举报 回复
发表于 2021-4-4 09:28:36
感謝樓主分享!
使用道具 举报 回复 支持 反对
发表于 2021-4-4 09:44:22
回复签到   
使用道具 举报 回复 支持 反对
发表于 2021-4-4 09:52:06
感謝樓主分享
使用道具 举报 回复 支持 反对
发表于 2021-4-4 10:08:41

感謝樓主分享!
使用道具 举报 回复 支持 反对
发表于 2021-4-4 10:14:47


感謝樓主分享
使用道具 举报 回复 支持 反对
发表于 2021-4-4 10:25:57
thanks for sharing
使用道具 举报 回复 支持 反对
发表于 2021-4-4 10:27:10
感謝樓主分享
使用道具 举报 回复 支持 反对
发表于 2021-4-4 10:35:39
谢谢分享!!!!!
使用道具 举报 回复
发表于 2021-4-4 10:42:40
真快,感谢分享~~~~~~~~~~~
使用道具 举报 回复 支持 反对
发表于 2021-4-4 10:57:09
感謝樓主分享
使用道具 举报 回复 支持 反对
您需要登录后才可以回帖 登录 | 立即注册

本版积分规则