用户
 找回密码
 立即注册
搜索

发帖

[16Bit] 陈佳 - 似是故人来 HQII 头版限量版 2020 [WAV/16-44.1]

  [复制链接]
发表于 2020-8-15 13:55:25
本区为您推荐超多华语SACD资源,以及Hi-res资源,欢迎大家一起努力为论坛添砖加瓦!

封面:
cover.jpg

简介:
序言:
曾踏遍每一方故土,
在光阴里寻找你的模样;
斑驳的记忆之中,
那流动着的熟悉气味,
那是曾让我心跳悸动的你吗?
于是,
每当黎明时分,
那晨光伴着缕缕的细雨,
轻轻飘落我的心扉时,
那定是记忆中的你,不远万里而来...

“邓丽君歌曲最佳传承人”

邓丽君文教基金会签约歌手

3岁起随中央音乐学院钢琴系教授学习钢琴,13岁就获得了全国音协考级与中央音乐学院海内外钢琴考级的最高证书,多次获奖。她的声音甜美,声线酷似邓丽君,样子也长得像邓丽君,独特的嗓音,细腻且甜美,清新而明丽。

除此之外,凭借其独特的端庄气质及深厚的文化底蕴,陈佳还被香港冯燊均国学基金会聘请为该基金会投资出品的 《轻谈国学歌风雅》系列节目的撰稿人、主讲人、音乐顾问及主唱,不仅深入浅出的讲述中华文化之精华,还表演钢琴弹唱、古典舞蹈更是亲自重新为唐宋诗词谱曲并演唱。

陈佳的“又见邓丽君”系列专辑一直都饱受好评,第一张《又见邓丽君》是别具意义的,它的面世,让乐迷们记住了声音甜美的陈佳,成为了发烧人声唱片中人手一张的佳作。它的选曲,是邓丽君小姐的作品中最具代表性,也是最受大家喜爱的,经陈佳的演绎,焕发出了不一样的魅力。

制作群:
制作人:廖志茂
制作顾问:何忠、董钧
录音顾问:leo冯
监  制:廖志茂
编  曲:黄志毅、廖志茂、黄振翼、邢孔攀                  
录  音:廖志茂、李贵
混  音:李贵
母带处理:leo冯

小提琴:张毅
大提琴:于萍、潘畅
长  笛:袁龙
双簧管:龙登杰
二  胡:黄江琴
笛  箫:伍国忠
钢  琴:黄志毅
吉  他:陈焕明
和  声:陈佳

曲目:
01.《啼笑姻缘》
02.《月半小夜曲》
03.《似是故人来》
04.《让一切随风》
05.《沉默是金》
06.《上海滩》
07.《容易受伤的女人》
08.《一生何求》
09.《有谁共鸣》
10.《风继续吹》
11.《李香兰》
12.《顺流逆流》



地址:
使用道具 举报 回复
Exact Audio Copy V1.3 from 2. September 2016

EAC 抓取日志文件从15. 八月 2020, 13:33

陈佳 / 似是故人来 HQII头版限量

使用驱动器  :YAMAHA  CRW-F1E   Adapter: 1  ID: 0

读取模式      : 可靠Secure
使用精确流     : 是
清空音频缓存    : 是
使用 C2 指示器 : 否

读取偏移校正:               : 733
读取 Lead-In 和 Lead-Out : 否
用静音填充抓取中丢失偏移的采样       : 是
去除首尾静音块               : 否
在CRC 计算中使用了空样本       : 是
已用接口                  : Win NT 及 2000 本地 Win32 接口

所用输出模式: : 内部 WAV 函数
样本格式    : 44.100 Hz; 16 Bit; 立体声


已抓取 CD 的 TOC

     音轨 |    起始    |    长度    |  起始扇区  |  结束扇区  
    --------------------------------------------
      1 |  0:00.00 |  4:02.07 |      0 |  18156
      2 |  4:02.07 |  4:58.06 |  18157 |  40512
      3 |  9:00.13 |  4:12.26 |  40513 |  59438
      4 | 13:12.39 |  3:34.63 |  59439 |  75551
      5 | 16:47.27 |  4:33.17 |  75552 |  96043
      6 | 21:20.44 |  3:18.28 |  96044 | 110921
      7 | 24:38.72 |  4:19.59 | 110922 | 130405
      8 | 28:58.56 |  4:24.29 | 130406 | 150234
      9 | 33:23.10 |  4:19.50 | 150235 | 169709
     10 | 37:42.60 |  5:33.43 | 169710 | 194727
     11 | 43:16.28 |  6:25.74 | 194728 | 223676
     12 | 49:42.27 |  3:59.45 | 223677 | 241646


范围状态及错误

已选择范围

     文件名 C:\Users\Administrator\Desktop\陈佳 - 似是故人来 HQII头版限量.wav

     峰值电平 100.0 %
     抓取速度 5.0 X
     范围质量 100.0 %
     复制 CRC AC69CA52
     复制成功

没有错误发生
使用道具 举报 回复 支持 反对
声音甜美!
使用道具 举报 回复
发表于 2020-8-15 14:32:55
谢谢分享好音乐!!
使用道具 举报 回复 支持 反对
发表于 2020-8-15 14:38:53
谢谢分享好音乐
使用道具 举报 回复 支持 反对
发表于 2020-8-15 14:44:24

谢谢分享好音乐!!
使用道具 举报 回复 支持 反对
发表于 2020-8-15 16:28:39
好听!!!!
使用道具 举报 回复
发表于 2020-8-15 16:36:22

谢谢分享好音乐
使用道具 举报 回复 支持 反对
发表于 2020-8-15 18:49:45
感谢您分享啊!
使用道具 举报 回复 支持 反对
发表于 2020-8-15 19:12:26
这么快就有了,谢谢
使用道具 举报 回复 支持 反对
发表于 2020-8-15 19:41:25
陈佳长的比邓丽君高挑,也比邓瘦点,至于唱的吗,大概有50%的相似度,其余的不像,能鉴别出来。要是叫我选她俩那个当老婆,我选年轻点的。
使用道具 举报 回复 支持 反对
发表于 2020-8-15 20:48:24
感谢楼主分享
使用道具 举报 回复 支持 反对
发表于 2020-8-15 22:52:02
谢谢分享好音乐
使用道具 举报 回复 支持 反对
发表于 2020-8-15 23:24:34
谢谢分享好音乐
使用道具 举报 回复 支持 反对
发表于 2020-8-16 00:01:08

謝謝分享好音樂!!
使用道具 举报 回复 支持 反对
发表于 2020-8-16 00:02:45
谢谢楼主分享
使用道具 举报 回复 支持 反对
发表于 2020-8-16 00:09:15
谢楼主分享
使用道具 举报 回复 支持 反对
发表于 2020-8-16 00:36:08
Thanks for sharing
使用道具 举报 回复 支持 反对
发表于 2020-8-16 00:36:55
谢谢分享好音乐
使用道具 举报 回复 支持 反对
发表于 2020-8-16 01:43:59
感谢楼主分享
使用道具 举报 回复 支持 反对
发表于 2020-8-16 02:08:37
感谢楼主分享
使用道具 举报 回复 支持 反对
发表于 2020-8-16 03:02:27
谢谢分享!!!!!
使用道具 举报 回复
发表于 2020-8-16 04:51:22
谢谢分享好音乐
使用道具 举报 回复 支持 反对
发表于 2020-8-16 05:32:36
谢谢分享好音乐
使用道具 举报 回复 支持 反对
发表于 2020-8-16 06:31:52
谢谢分享好音乐
使用道具 举报 回复 支持 反对
发表于 2020-8-16 06:37:16
感谢楼主分享
使用道具 举报 回复 支持 反对
发表于 2020-8-16 08:07:19
感谢楼主分享
使用道具 举报 回复 支持 反对
发表于 2020-8-16 09:03:14
谢谢楼主分享好专辑。
使用道具 举报 回复 支持 反对
声音好听得很
使用道具 举报 回复 支持 反对
发表于 2020-8-16 11:42:26
thanks for your sharing!!
使用道具 举报 回复 支持 反对
您需要登录后才可以回帖 登录 | 立即注册

本版积分规则