用户
 找回密码
 立及住厕
搜索

发帖

[16Bit] [自抓禁转] 坂本龍一 Ryuichi Sakamoto - Music For Film 原声精选 2016 [WAV整轨+CUE/16/44]

  [复制链接]
发表于 2020-2-15 11:17:00
封面:
3.jpg


简介:

自购于淘宝,加邮费花了200RMB,全是经典电影曲目,如《末代皇帝》《战场上的快乐圣诞》《蛇蝎女人》《遮蔽的天空》
等。EAC慢速精准模式抓轨,自己用数播听了一下,和CD音质几乎一样。


曲目:
1 Merry Christmas Mr. Lawrence Main Theme (From "Merry Christmas Mr. Lawrence")
2 Endroll (From "The Last Emperor")
3 Rain (From "The Last Emperor")
4 The Sheltering Sky Main Theme (From "The Sheltering Sky")
5 High Heels Main Theme (From "High Heels")
6 Wild Palms Main Theme (From "Wild Palms")
7 Acceptance (From "Little Buddha")
8 Snake Eyes Main Theme (Long Version) (From "Snake Eyes")
9 Bolerisch (From "Femme Fatale")
10 Bibo No Aozora (From "Babel")
11 Small Hope (From "Hara-Kiri (Ichimei)")
12 Yae No Sakura Opening Theme (From "Yae No Sakura")
13 The Revenant Main Theme (From "The Revenant")

查看更多内容请登录

使用道具 举报 回复
发表于 2020-2-15 22:57:26
修改了一下cue文件


REM DISCID B910280D
REM COMMENT ExactAudioCopy v1.1
PERFORMER "坂本龙一"
TITLE "Music for Film"
FILE "坂本龙一 - Music for Film.wav" WAVE
  TRACK 01 AUDIO
    TITLE "Merry Christmas Mr. Lawrence Main Theme (From 《Merry Christmas Mr. Lawrence》)"
    PERFORMER "坂本龙一"
    ISRC GBAJC1600181
    INDEX 01 00:00:00
  TRACK 02 AUDIO
    TITLE "Endroll (From 《The Last Emperor》)"
    PERFORMER "坂本龙一"
    ISRC GBAJC1600182
    INDEX 00 06:02:16
    INDEX 01 06:03:44
  TRACK 03 AUDIO
    TITLE "Rain (From 《The Last Emperor》)"
    PERFORMER "坂本龙一"
    ISRC GBAJC1600183
    INDEX 00 14:07:05
    INDEX 01 14:08:34
  TRACK 04 AUDIO
    TITLE "The Sheltering Sky Main Theme (From 《The Sheltering Sky》)"
    PERFORMER "坂本龙一"
    ISRC GBAJC1600184
    INDEX 00 18:24:35
    INDEX 01 18:26:23
  TRACK 05 AUDIO
    TITLE "High Heels Main Theme (From 《High Heels》)"
    PERFORMER "坂本龙一"
    ISRC GBAJC1600185
    INDEX 00 24:51:67
    INDEX 01 24:54:47
  TRACK 06 AUDIO
    TITLE "Wild Palms Main Theme (From 《Wild Palms》)"
    PERFORMER "坂本龙一"
    ISRC GBAJC1600186
    INDEX 00 28:02:34
    INDEX 01 28:05:44
  TRACK 07 AUDIO
    TITLE "Acceptance (From 《Little Buddha》)"
    PERFORMER "坂本龙一"
    ISRC GBAJC1600187
    INDEX 00 30:37:33
    INDEX 01 30:39:07
  TRACK 08 AUDIO
    TITLE "Snake Eyes Main Theme (Long Version) (From 《Snake Eyes》)"
    PERFORMER "坂本龙一"
    ISRC GBAJC1600188
    INDEX 00 39:27:72
    INDEX 01 39:29:51
  TRACK 09 AUDIO
    TITLE "Bolerisch (From 《Femme Fatale》)"
    PERFORMER "坂本龙一"
    ISRC GBAJC1600189
    INDEX 00 44:56:13
    INDEX 01 44:58:27
  TRACK 10 AUDIO
    TITLE "Bibo No Aozora (From 《Babel》)"
    PERFORMER "坂本龙一"
    ISRC GBAJC1600190
    INDEX 00 51:09:03
    INDEX 01 51:09:40
  TRACK 11 AUDIO
    TITLE "Small Hope (From 《Hara-Kiri (Ichimei)》)"
    PERFORMER "坂本龙一"
    ISRC GBAJC1600191
    INDEX 00 57:37:46
    INDEX 01 57:39:64
  TRACK 12 AUDIO
    TITLE "Yae No Sakura Opening Theme (From 《Yae No Sakura》)"
    PERFORMER "坂本龙一"
    ISRC GBAJC1600192
    INDEX 00 62:39:33
    INDEX 01 62:41:74
  TRACK 13 AUDIO
    TITLE "The Revenant Main Theme (From 《The Revenant》)"
    PERFORMER "坂本龙一"
    ISRC GBAJC1600193
    INDEX 00 65:45:04
    INDEX 01 65:46:33
使用道具 举报 回复 支持 2 反对 0
发表于 2020-2-15 11:54:33
谢谢分享!
使用道具 举报 回复
发表于 2020-2-15 11:55:25
谢谢樓主分享!
使用道具 举报 回复 支持 反对
发表于 2020-2-15 11:56:00
谢谢分享。。。
使用道具 举报 回复
发表于 2020-2-15 12:21:16
谢谢你的分享
使用道具 举报 回复 支持 反对
发表于 2020-2-15 13:20:28
最喜欢《Merry Christmas Mr. Lawrence》。谢谢分享!
使用道具 举报 回复 支持 反对
发表于 2020-2-15 15:15:59
前三首真是百听不厌,听听其他的,感谢分享!
使用道具 举报 回复 支持 反对
发表于 2020-2-15 15:38:05
很喜欢电影原声
回帖积分奖励:+2新币
使用道具 举报 回复 支持 反对
发表于 2020-2-15 16:15:48
Rain好喜歡這一首 真的很好聽
使用道具 举报 回复 支持 反对
发表于 2020-2-15 16:29:44
Thank you for sharing!!
使用道具 举报 回复 支持 反对
发表于 2020-2-15 16:42:09
很喜欢这个,感谢分享~
使用道具 举报 回复 支持 反对
发表于 2020-2-15 17:15:42
喜欢ymo,坂本大神牛逼
使用道具 举报 回复 支持 反对
发表于 2020-2-15 19:23:36
多谢分享,佳乐共赏
使用道具 举报 回复 支持 反对
发表于 2020-2-15 19:57:01
感谢楼主分享,6666
使用道具 举报 回复 支持 反对
发表于 2020-2-15 22:17:06
谢谢樓主分享
使用道具 举报 回复 支持 反对
发表于 2020-2-15 22:22:54
谢谢樓主分享
使用道具 举报 回复 支持 反对
发表于 2020-2-15 22:52:13
教授的精选! 谢谢楼主分享
使用道具 举报 回复 支持 反对
发表于 2020-2-15 23:00:05
谢谢分享好资源
使用道具 举报 回复 支持 反对
发表于 2020-2-16 00:07:23
谢谢分享!
使用道具 举报 回复
发表于 2020-2-16 00:10:12
谢谢樓主分享
使用道具 举报 回复 支持 反对
发表于 2020-2-16 00:39:14
坂本龍一這張電影音樂碟可以聽聽
使用道具 举报 回复 支持 反对
发表于 2020-2-16 01:26:29
坂本龙一的原声
使用道具 举报 回复 支持 反对
发表于 2020-2-16 01:56:47
老朋友安利 百听不腻
使用道具 举报 回复 支持 反对
发表于 2020-2-16 05:08:47
謝謝樓主分享!

使用道具 举报 回复 支持 反对
发表于 2020-2-16 06:21:49
谢谢樓主分享
使用道具 举报 回复 支持 反对
发表于 2020-2-16 07:21:12
谢谢你的分享
使用道具 举报 回复 支持 反对
发表于 2020-2-16 08:01:24
末代皇帝的配樂著實經典,感謝分享!
使用道具 举报 回复 支持 反对
发表于 2020-2-16 08:02:18
谢谢樓主分享!
使用道具 举报 回复 支持 反对
发表于 2020-2-16 08:42:00
this is amazing
使用道具 举报 回复 支持 反对
*滑块验证:
您需要登录后才可以回帖 登录 | 立及住厕

本版积分规则