用户
 找回密码
 立即注册
搜索

发帖

[16Bit] [WAV][Pop] 永远的红楼梦 HQCDII 2017 16bit

[复制链接]
发表于 2019-5-4 03:40:07
本帖最后由 东木小子 于 2020-11-22 01:36 编辑

封面:
cover.jpg back.jpg

简介:
    时光流逝 20 多年,顶级的制作阵容再造 1987 版《红楼梦》电视原声发烧大碟,再现中国第一名著的天籁盛宴:中国配器巨匠张宏光,中央电视台首席录音师李小沛,全球限量 100 支的 B&K 话筒、NEVE 顶级多轨调音台,为北京奥运会开幕式演奏的古筝演奏家常静,民族声乐当家花旦曲丹,前所未有的民族交响与发烧人声于中央电视台一号录音棚交融,经典的韵味与现代的技术,令红楼天籁又一次得到巅峰演绎。《永远的红楼梦》这样顶级的豪华阵容和录音设备,只为倾力打造民族交响与发烧人声交融的世外天籁!

制作人张春一

张春一,著名音乐制作人,出身于音乐世家,毕业于沈阳音乐学院,几十年从事音乐制作,编辑制作上千种音像制品,多次获金唱片奖,先后担任海内外唱片公司制作人。

幕后音乐高手” 张宏光

中国内地乐坛巨匠、著名作曲家张宏光多年来一直被音乐界尊称为“幕后音乐高手”。长篇历史巨著《汉武大帝》、《康熙帝国》等气势恢弘的主题音乐都是出自他的手笔,他为有“中国歌坛新古典主义风格代表”之称的屠洪纲创作了《精忠报国》,为大陆歌坛实力唱将韩磊创作了《向天再借五百年》等一批大气磅礴、气势恢弘的音乐作品,还为2008北京奥运会帆船项目创作了歌曲《爱的海洋》。

此外,他在编曲配器方面的知名度和成就也毫不逊色于作曲本行,由他编配的《春天的故事》、《天不刮风天不下雨天上有太阳》、《两只蝴蝶》、《当狼爱上羊》、《窗外》等音乐作品广为传唱,红遍了整个中国。

张宏光还创作了丰富的电视电影音乐作品,如《汉武大帝》、《康熙王朝》、《孝庄秘史》、《邓小平》、《凤在江湖》、《皇太子秘史》、《杨洋三嫁》、《绝对权利》等音乐作品,参与制作了电影、电视剧《天下无贼》、《京华烟云》、《成吉思汗》、《我爱我家》的音乐。此外,他还为《大漠敦煌》、《霸王别姬》、《香格里拉》等大型舞剧进行音乐制作。

录音师李小沛

李小沛,中国中央电视台总录音师、国家一级录音师。毕业于北京电影学院录音系。多次担任中央电视台《春节联欢晚会》及各种大型节目的总音响设计及音乐录音师。为多部电影及电视剧录制音乐。把"人声与交响乐"的精髓细致传神地表现出来,歌唱家宽阔的音域,质朴、有力的风格,以及气势磅礴、抒情大气的管弦乐伴奏,通过唱片作为媒介忠实圆满的录制下来,是一项极具挑战性的艺术工作。

    此次的唱片载体—— HiQuality CD Ⅱ(HQCD),显得至关重要,这是第 2 代压碟技术,能极致真实地还原母带音源,缔造超凡音效体验。HQCD Ⅱ采用制造液晶体屏幕时使用的聚碳酸酯作为光碟的基片材质,比普通 CD 质量更高更透光,成型更加精准;基片亦特别制作为紫色,使赤色激光读取的数据更精确;反射膜则由 CD 沿用多年的铝质转换成更具耐久性、耐热性、耐光性的特殊合金。三种物料互相配合时的 HQCD Ⅱ之音色更为细腻,解像度、透明感更高,现场感更逼真,无须更换或添加器材亦能体验到 HQCD Ⅱ的超凡音效。


无损音乐曲目:
01 红楼梦主题变奏曲 5:32
中国配器巨匠张宏光老师专门创作之《红楼梦》主题曲,民族交响天籁。
02 引子 1:55
古筝声清如水,弦乐悠扬,婉转玉润深远的女声,则是这美丽乐音中最美的开篇。
03 枉凝眉 2:58
一个是阆苑仙葩,一个是美玉无瑕,缘何心事终虚化?
04 红豆曲 4:35
滴不尽相思血泪抛红豆,开不完春柳春花满画楼
05 葬花吟 6:54
天尽头,何处有香丘!一朝春尽红颜老,花落人亡两不知!
06 题帕三绝 4:13
眼空蓄泪泪空垂,暗洒闲抛却为谁?尺幅鲛绡劳解赠,叫人焉得不伤悲!
07 秋窗风雨夕 4:34
秋花惨淡秋草黄,耿耿秋灯秋夜长。凄风苦雨的秋夜,孤单寂寞的潇湘馆,重病少女的哀思。
08 晴雯歌 3:21
霁月难逢,彩云易散;心比天高,身为下贱。风流灵巧招人怨。
09 紫菱洲歌 2:18
古人惜别怜朋友,况我今当手足情!凄婉深情的律诗,凄美惆怅的曲子,充满感伤怀人之情。
10 叹香菱 3:18
根并荷花一茎香,平生遭际实堪伤。自从两地生孤木,致使香魂返故乡。
11 分骨肉 4:29
撕心裂肺的离别,肝肠寸断的哭泣,探春远嫁的画面在歌声中一一浮现。
12 聪明累 2:53
琵琶珠玉般的声音贯穿全曲,与磁性的男声,交汇成对琏二奶奶最深的慨叹。
13 枉凝眉(民乐版) 5:12
戴亚清旷古远的箫、常静轻灵若水的古筝,互诉此情脉脉,惆怅满腔。
14 葬花吟(民乐版) 7:17
灵动琵琶犹若绛珠仙子兰质素心的前世,哀怨二胡仿佛潇湘妃子凄凉苦楚的今生,自怜自叹。



本主题所有hires无损音乐内容均为互联网采集所得,本站仅对作品介绍展示,不直接提供下载服务。另本站音乐相关内容皆从网上搜集转载,如侵犯您的权益,请通知我们,我们将及时删除。如果你喜欢主题所述内容,请你通过正规渠道购买正版。
使用道具 举报 回复
发表于 2019-5-4 08:07:33
好碟,经典,男的都想当贾宝玉,女的相当谁就不晓得了;反正少不看红楼,老不看三国;我老了,听听红楼也起不了啥作用啦!
使用道具 举报 回复 支持 1 反对 0
Exact Audio Copy V1.3 from 2. September 2016

EAC 抓取日志文件从4. 五月 2019, 2:25

李小沛/曲丹 / 永远的红楼梦 HQCD Ⅱ

使用驱动器  :YAMAHA  CRW-F1E   Adapter: 1  ID: 0

读取模式      : 可靠Secure
使用精确流     : 是
清空音频缓存    : 是
使用 C2 指示器 : 否

读取偏移校正:               : 733
读取 Lead-In 和 Lead-Out : 否
用静音填充抓取中丢失偏移的采样       : 是
去除首尾静音块               : 否
在CRC 计算中使用了空样本       : 是
已用接口                  : Win NT 及 2000 本地 Win32 接口

所用输出模式: : 内部 WAV 函数
样本格式    : 44.100 Hz; 16 Bit; 立体声


已抓取 CD 的 TOC

     音轨 |    起始    |    长度    |  起始扇区  |  结束扇区  
    --------------------------------------------
      1 |  0:00.00 |  5:36.06 |      0 |  25205
      2 |  5:36.06 |  1:59.26 |  25206 |  34156
      3 |  7:35.32 |  3:00.04 |  34157 |  47660
      4 | 10:35.36 |  4:38.58 |  47661 |  68568
      5 | 15:14.19 |  6:58.15 |  68569 |  99933
      6 | 22:12.34 |  4:17.01 |  99934 | 119209
      7 | 26:29.35 |  4:38.10 | 119210 | 140069
      8 | 31:07.45 |  3:24.01 | 140070 | 155370
      9 | 34:31.46 |  2:22.07 | 155371 | 166027
     10 | 36:53.53 |  3:20.56 | 166028 | 181083
     11 | 40:14.34 |  4:32.10 | 181084 | 201493
     12 | 44:46.44 |  2:57.23 | 201494 | 214791
     13 | 47:43.67 |  5:15.12 | 214792 | 238428
     14 | 52:59.04 |  7:20.20 | 238429 | 271448


范围状态及错误

已选择范围

     文件名 C:\Users\Administrator\Desktop\李小沛,曲丹 - 永远的红楼梦 HQCD Ⅱ.wav

     峰值电平 98.4 %
     抓取速度 4.0 X
     范围质量 100.0 %
     复制 CRC DE26C44F
     复制成功

没有错误发生
使用道具 举报 回复 支持 反对
貴了點,幫你改了哈
使用道具 举报 回复 支持 反对
发表于 2019-5-7 21:39:39
谢谢分享。
使用道具 举报 回复
发表于 2020-3-1 00:32:24
我爱我家的作曲者不是他。
使用道具 举报 回复 支持 反对
发表于 2020-3-1 00:58:03
很喜欢,谢谢楼主分享
使用道具 举报 回复 支持 反对
发表于 2020-3-4 00:50:55
Thanks For Sharing!
使用道具 举报 回复 支持 反对
发表于 2020-3-4 13:03:03
太经典啦!感谢
使用道具 举报 回复 支持 反对
发表于 2020-3-6 09:59:54
这版红楼梦的音效不错
使用道具 举报 回复 支持 反对
发表于 2020-3-6 10:29:03
赖昌星在厦门建造了红楼,里面吃喝嫖赌要啥有啥,腐蚀拉拢了几乎整个厦门的大官,堪称现代红楼梦!要说这手段,可以在官场呼风唤雨了,要是没更大的领导拿下,一般的官员还真没辙!
使用道具 举报 回复 支持 反对
发表于 2020-7-31 08:09:28
Thanks For Sharing!
使用道具 举报 回复 支持 反对
发表于 2020-11-22 00:17:06
感谢楼主分享
使用道具 举报 回复 支持 反对
发表于 2021-2-19 00:29:21
感谢楼主分享
使用道具 举报 回复 支持 反对
发表于 2021-2-22 18:41:40
好碟,经典,男的都想当贾宝玉,女的相当谁就不晓得了;反正少不看红楼,老不看三国;我老了,听听红楼也起不了啥作用啦
使用道具 举报 回复 支持 反对
发表于 2021-4-12 10:09:33
谢谢分享
使用道具 举报 回复
您需要登录后才可以回帖 登录 | 立即注册

本版积分规则