用户
 找回密码
 立即注册
搜索

发帖

[16Bit] [WAV][New Age] 刘星 - 一意孤行 1993 雨果唱片

[复制链接]
发表于 2016-10-7 01:22:56
本帖最后由 PAGAN 于 2017-5-7 00:39 编辑

封面:
Cover.jpg
Back.jpg
Disc.jpg
简介:
HiFi入门必听十大名碟之一 电子乐类发烧天碟

专辑名称:一意孤行
艺术家:刘星
唱片公司:雨果唱片
CD版本:东芝首版
发地区:港台
发行时间:1993
内圈码:K-KG1006-2 1A1 TO
无IFPI码
CD编号:KG 1006-2
碟片数:1
介质:CD
所属分类:发烧音乐
【本碟为1997再版抓碟(参照封套原图)】

内容简介:

    刘星是中国为数不多的、较为成功的NEW AGE音乐的实践者,虽然他在世俗中的知名度甚至不如三、四流的小歌星。

    『一意孤行』是堪称新世纪音乐“中国拓荒者”的刘星的第二张专辑,也是迄今为止最为大部分乐迷所知的专辑。比起以前的『无所事事』,刘星在『一意孤行』更强烈地流露了他的个性,听着他那种突破传统音乐和流行音乐界线,在新的音响中寻找自我的音乐,细细咀嚼他为每一首乐曲所写的像散文、又像诗般的“乐曲说明”文字,很明显地可以感觉到刘星在这辑制作中很大程度地将自己的心境投入其中。

    这是一张很特别,很中国化的New Age音乐碟,全碟以古悠的古琴轻弹缓奏为首曲,运用了大量的中国古乐的手法,很有意境的体现出作者的意图,不顾困苦,克服挫折,执意前行,超然脱世。一意孤行。

    行云流水:说不出,想不出,感觉不出,看不出,唱不出,走遍天涯走不出。想给予自己却拥有太少,不明白为什么匆匆忙忙地来到这个世界,拾不起,放不下,走不去。聆听NEWAGE音乐,其实是一场奇幻的灵魂之旅。在恩雅的爱尔兰风景画中徜徉,在梅得温的南美丛林气息中呼吸,沐浴着喜多郎的丝路花雨,固然得到莫大的享受, 毕竟是有一层说不清的隔膜,终究无法直抵心灵的最深处。作为怀抱一份古典情怀的中国人,我听到《一意孤行》,承认这就是中国的NEWAGE,不须华彩,拒绝炫技,几小件中阮、琵琶、笛子、巴乌、洞箫,优化组合,自在挥洒,足矣。但是,这并非一张出世的专辑。贯穿始终的是一种人性化的思考、挣扎、蜕变。

    收录十几首歌,每首都各有风格。《虚怀若谷》浑厚磅礴, 枉若置身山谷,顿生博大之心;一息尚存》,曲调缓慢凄凉,而又略带空灵, 让人感受到临终前的那种留恋, 无奈,不断回眸同时等待解脱的复杂心理,使人油然而生一种对生命本来的困惑,一种说不清,道不明的宗教情绪.乐曲中旋律最优美的当属第一首《闲云孤鹤》, 无拘无束, 悠闲自得, 令你远离尘嚣, 心旷神怡. 碟中《孤芳自赏》、《轮回》、《一意孤行》等曲也极有特色, 令人生出无限感触。

    不能免俗的,也要提到它的音响效果,事实上也不必我们多说什么了,大家多看几篇音响系统的评测文章就一定会找到关于它的音效评价。大家不妨也试试看,“无所不至”一开始那一段贴着地面而来的低频,你的系统能听到吗?


曲目:
01.闲云孤鹤/Still Clouds and a Solitary Crane
是当年别时载走离愁的那一片忘忧么?是翩翩展舞于白萍洲边上的那一只白鸟么?无喜亦无悲,不惊亦不惧。千载万年,悠悠地独潇洒于天地间。

02.无所不至/Omnipresence
这世间,一定是有什么不为人所知亦不为人所控制的东西,可以无所不至。无论你躲藏于哪个空间,无论你如何掩盖假饰。它总有办法穿越一切阻碍,狠狠的准确的击中你,犹如点中死穴。你只有含泪或含笑的就命于它。是什么呢?谁可以给我一个正确的谜底

03.孤芳自赏/A Solitary Flower in Love with Itself
或者是幽谷的一株君子兰,或者是躲于喧哗月塘中的一张荷,或者是暗夜里悄悄吐芬芳的一朵昙,或者,什么都不是。山在山那里高着,海在海那里蓝着,天在天那里空着。我,在我心底静静的坚持着

04.虚怀若谷/Be Open-minded as a Valley
要如何忘情真性,才去到这一空境?诗越读越厚,日子越读越薄,生命越读越轻。空旷的心,无所不容,无所不纳。高人,我站在渺小处仰望你。

05.一息尚存/One's Last Gasp
如果我还有一口气,我要一直念着爱人的名字。恋爱中的情人如此说。如果我还有一口气,我要普渡天下苍生至极乐彼岸。佛如此说。
如果我还有一口气,我要呵暖那株在昨夜的早春残雪中怯怯露芽的小草儿。一个小孩子如此说。一息尚存。你,当如何做?才终于感受到生命的大感动?

06.轮回/Samsara
庄子梦蝶。不解此身,蝶耶?庄生耶?哲人们负手苦思,不得真语。我不想这么深奥的问题。常想前生,我也许是燃于君案头的一枝红烛,流着泪凝视君,伴君读诗书一页,君却永不知我深情。今世,我但愿轮回为君手中所执诗书,日日,为君读,为君抚摩,感受君孜孜不倦的心情。

07.行云流水/Drifting Clouds and Flowing Water
郑板桥曾挥笔写下:“花开花落僧贫富,云去云来客往还。”剪薄云作绡衣,掬清水浣素面。我愿意飘飘然地追随诗人的脚步,“行至水穷处,坐看云起时。”君若寻我,行云流水里听我

08.即兴曲(一)/Impromptu I

09.遥遥长路/A Long, Long Way to go

10.一意孤行/My Way

11.即兴曲(二)/Impromptu II
诗人说,我不是归人,只是过客。我踏踏的马蹄声,是一个美丽的错误。爱,我只要糇°,哪怕只是片刻,哪怕粉身碎骨。让我将这美丽的错误进行到底。如同坚持我的理想,终生为爱和美与世俗作永远的斗争。遥遥长路,一意孤行。心底有所坚持的人们,痛并快乐的活?


试听:


本网站只提供音乐的简介,恕不提供下载。

使用道具 举报 回复
发表于 2019-12-5 12:16:43
名盘,谢楼主原抓分享!
使用道具 举报 回复 支持 1 反对 0
我以前都有这张CD
使用道具 举报 回复 支持 反对
发表于 2016-10-7 08:55:12
文件有多大
使用道具 举报 回复 支持 反对
压缩包里图片有水印,能从新传下吗
使用道具 举报 回复 支持 反对
发表于 2016-10-7 13:52:44
左岸印象 发表于 2016-10-7 12:25
压缩包里图片有水印,能从新传下吗

图片已经重新上传,缺失的WAV文件是网页版百度云给吞了,用客户端已经重新上传,麻烦站长重新审核下~

使用道具 举报 回复 支持 反对
发表于 2016-10-7 13:56:45

------------

Exact Audio Copy V1.0 beta 3 from 29. August 2011

EAC 抓取日志文件从28. 五月 2014, 23:07

刘星 / 一意孤行

使用驱动器  :TSSTcorpCDDVDW SE-S084F   Adapter: 0  ID: 0

读取模式      : 可靠Secure
使用精确流     : 是
清空音频缓存    : 是
使用 C2 指示器 : 否

读取偏移校正:               : 6
读取 Lead-In 和 Lead-Out : 否
用静音填充抓取中丢失偏移的采样       : 是
去除首尾静音块               : 否
在CRC 计算中使用了空样本       : 是
已用接口                  : Win NT 及 2000 本地 Win32 接口

所用输出模式: : 内部 WAV 函数
样本格式    : 44.100 Hz; 16 Bit; 立体声


已抓取 CD 的 TOC

     音轨 |    起始    |    长度    |  起始扇区  |  结束扇区  
    --------------------------------------------
      1 |  0:00.00 |  5:29.50 |      0 |  24724
      2 |  5:29.50 |  6:19.37 |  24725 |  53186
      3 | 11:49.12 |  5:50.25 |  53187 |  79461
      4 | 17:39.37 |  4:48.00 |  79462 | 101061
      5 | 22:27.37 |  6:46.50 | 101062 | 131561
      6 | 29:14.12 |  5:20.13 | 131562 | 155574
      7 | 34:34.25 |  5:25.62 | 155575 | 180011
      8 | 40:00.12 |  6:25.63 | 180012 | 208949
      9 | 46:26.00 |  5:27.25 | 208950 | 233499
     10 | 51:53.25 |  5:34.62 | 233500 | 258611
     11 | 57:28.12 |  5:27.00 | 258612 | 283136


范围状态及错误

已选择范围

     峰值电平 99.4 %
     抓取速度 2.0 X
     范围质量 99.9 %
     复制 CRC 49AE0950
     复制成功

没有错误发生


AccurateRip 摘要

音轨  1  精确地校准抓取  3)  [50DC4261]  (AR v2)
音轨  2  精确地校准抓取  3)  [D05CA80F]  (AR v2)
音轨  3  精确地校准抓取  3)  [4CA4054F]  (AR v2)
音轨  4  精确地校准抓取  3)  [0EAA09E5]  (AR v2)
音轨  5  精确地校准抓取  3)  [A671AD07]  (AR v2)
音轨  6  精确地校准抓取  3)  [3EB9BC84]  (AR v2)
音轨  7  精确地校准抓取  3)  [14B5E773]  (AR v2)
音轨  8  精确地校准抓取  3)  [5130B45C]  (AR v2)
音轨  9  精确地校准抓取  3)  [070CD954]  (AR v2)
音轨 10  精确地校准抓取  3)  [D87FB38B]  (AR v2)
音轨 11  精确地校准抓取  3)  [F2341CAA]  (AR v2)

所有音轨精确校准抓取

状态报告结尾
使用道具 举报 回复 支持 反对
PAGAN 发表于 2016-10-7 13:52
图片已经重新上传,缺失的WAV文件是网页版百度云给吞了,用客户端已经重新上传,麻烦站长重新审核下~

...

好的
使用道具 举报 回复 支持 反对
发表于 2016-12-12 15:51:59
感谢楼主不忘中国古风,文化越是沉淀越是经典
使用道具 举报 回复 支持 反对
发表于 2017-1-15 15:46:20
感恩無私分享
使用道具 举报 回复 支持 反对
发表于 2017-1-15 20:44:43
这张碟子不错!谢谢您分享!
使用道具 举报 回复 支持 反对
发表于 2017-3-5 20:27:24
啊哦,你来晚了,分享的文件已经被删除了,下次要早点哟。
使用道具 举报 回复 支持 反对
发表于 2017-3-19 22:18:22
麻烦补充资源
使用道具 举报 回复 支持 反对
发表于 2017-5-1 13:43:34
啊哦,你来晚了,分享的文件已经被删除了,下次要早点哟。
--下不了了
使用道具 举报 回复 支持 反对
发表于 2017-5-6 13:16:43
啊哦,你来晚了,分享的文件已经被删除了,下次要早点哟。
使用道具 举报 回复 支持 反对
发表于 2017-5-7 00:40:44
Fujiman 发表于 2017-5-6 13:16
啊哦,你来晚了,分享的文件已经被删除了,下次要早点哟。

抱歉,已更新
使用道具 举报 回复 支持 反对
发表于 2017-5-7 00:41:13

抱歉,已更新
使用道具 举报 回复 支持 反对
发表于 2017-5-7 00:41:26

抱歉,已更新
使用道具 举报 回复 支持 反对
发表于 2017-5-7 00:41:38
dim76 发表于 2017-3-5 20:27
啊哦,你来晚了,分享的文件已经被删除了,下次要早点哟。

抱歉,已更新
使用道具 举报 回复 支持 反对
发表于 2017-6-4 23:49:54
谢谢分享!!!!!
使用道具 举报 回复
发表于 2017-7-27 21:51:56
Thanks for sharing
使用道具 举报 回复 支持 反对
发表于 2017-8-26 20:58:16
THANK YOU FOR THE GOOD DISC
使用道具 举报 回复 支持 反对
发表于 2018-8-30 10:30:33
楼主,分享的文件不对啊
使用道具 举报 回复 支持 反对
发表于 2018-8-30 10:33:54
下载的是这样的,分享不知道是哪个专辑呢,也不能分轨啊
图片1.png
使用道具 举报 回复 支持 反对
发表于 2018-12-6 14:02:36
谢谢了,终于找全了。
使用道具 举报 回复 支持 反对
发表于 2018-12-23 09:22:03
刘星是个很随性的人,无所拘束,至交淡如水,害的雨果的老易好几次都不搭理他了!
使用道具 举报 回复 支持 反对
发表于 2020-2-26 19:58:46
当年的雨果真是精品辈出啊!
使用道具 举报 回复 支持 反对
发表于 2020-3-17 11:23:21
感谢分享,欣赏音乐
使用道具 举报 回复 支持 反对
发表于 2020-7-26 10:12:45
感谢分享,很多年的经典音乐
使用道具 举报 回复 支持 反对
发表于 2020-9-18 15:51:49
感谢楼主分享!
使用道具 举报 回复 支持 反对
您需要登录后才可以回帖 登录 | 立即注册

本版积分规则